RipGroove

Can't get Handbrake to encode?

Posted (edited)

I use Handbrake to convert Nvidia Shadowplay files to 'constant fps' otherwise Sony Vegas looses sync with the sound after rendering. 

 

I usually use these settings but with my res (3440x1440), and get very good results:

 

But I can't get it to work on my new PC build, when I hit the 'Start Encode' button, it thinks about it for a second then just says 'queue finished with 1 error or cancellation'.

 

I'm encoding from a file on an empty SSD to the same SSD, here's the log file of the failed encode:

Spoiler

 

HandBrake 1.0.3 (2017022500) - 64bit
OS: Microsoft Windows NT 10.0.14393.0 - 64bit
CPU: Intel(R) Core(TM) i7-7700K CPU @ 4.20GHz
Ram: 16319 MB, 
GPU Information:
  NVIDIA GeForce GTX 980 Ti - 21.21.13.7878
Screen: 3440x1440
Temp Dir: C:\Users\Pete\AppData\Local\Temp\
Install Dir: C:\Program Files\HandBrake
Data Dir: C:\Users\Pete\AppData\Roaming\HandBrake Team\HandBrake\1.0.3.0

-------------------------------------------


# Starting Encode ...

[09:33:10] hb_init: starting libhb thread
[09:33:10] 1 job(s) to process
[09:33:10] json job:
{
  "Audio": {
    "AudioList": [
      {
        "Bitrate": 160,
        "DRC": 0.0,
        "Encoder": 67108864,
        "Gain": 0.0,
        "Mixdown": 4,
        "NormalizeMixLevel": false,
        "Samplerate": 0,
        "Track": 0,
        "DitherMethod": 0
      }
    ],
    "CopyMask": [
      1073807360,
      1073743872,
      1074003968,
      1073750016,
      1090519040,
      1074790400,
      1074266112,
      1107296256
    ],
    "FallbackEncoder": 2048
  },
  "Destination": {
    "ChapterList": [
      {
        "Name": "Chapter 1"
      }
    ],
    "ChapterMarkers": true,
    "File": "C:\\Users\\Pete\\Desktop\\Squad 03.19.2017 - 17.39.15.03-1.m4v",
    "Mp4Options": {
      "IpodAtom": false,
      "Mp4Optimize": true
    },
    "Mux": 131072
  },
  "Filters": {
    "FilterList": [
      {
        "ID": 11,
        "Settings": {
          "crop-bottom": "0",
          "crop-left": "2",
          "crop-right": "0",
          "crop-top": "0",
          "height": "1440",
          "width": "3438"
        }
      },
      {
        "ID": 6,
        "Settings": {
          "mode": "1",
          "rate": "27000000/450000"
        }
      }
    ]
  },
  "PAR": {
    "Num": 1,
    "Den": 1
  },
  "Metadata": {},
  "SequenceID": 0,
  "Source": {
    "Angle": 1,
    "Range": {
      "Type": "chapter",
      "Start": 1,
      "End": 1
    },
    "Title": 1,
    "Path": "D:\\SQUAD Videos\\Squad\\Squad 03.19.2017 - 17.39.15.03.mp4"
  },
  "Subtitle": {
    "Search": {
      "Burn": true,
      "Default": false,
      "Enable": true,
      "Forced": true
    },
    "SubtitleList": []
  },
  "Video": {
    "Encoder": 65536,
    "TwoPass": false,
    "Turbo": false,
    "ColorMatrixCode": 0,
    "Options": "ref=4",
    "Quality": 0.0,
    "OpenCL": false,
    "HWDecode": false,
    "QSV": {
      "Decode": false,
      "AsyncDepth": 0
    }
  }
}
[09:33:10] CPU: Intel(R) Core(TM) i7-7700K CPU @ 4.20GHz
[09:33:10]  - Intel microarchitecture Kaby Lake
[09:33:10]  - logical processor count: 4
[09:33:10] Intel Quick Sync Video support: no
[09:33:10] hb_scan: path=D:\SQUAD Videos\Squad\Squad 03.19.2017 - 17.39.15.03.mp4, title_index=1
udfread ERROR: ECMA 167 Volume Recognition failed
src/libbluray/disc/disc.c:274: failed opening UDF image D:\SQUAD Videos\Squad\Squad 03.19.2017 - 17.39.15.03.mp4
src/libbluray/disc/disc.c:352: error opening file BDMV\index.bdmv
src/libbluray/disc/disc.c:352: error opening file BDMV\BACKUP\index.bdmv
[09:33:10] bd: not a bd - trying as a stream/file instead
libdvdnav: Using dvdnav version 5.0.1
libdvdread: Encrypted DVD support unavailable.
libdvdread:DVDOpenFileUDF:UDFFindFile /VIDEO_TS/VIDEO_TS.IFO failed
libdvdread:DVDOpenFileUDF:UDFFindFile /VIDEO_TS/VIDEO_TS.BUP failed
libdvdread: Can't open file VIDEO_TS.IFO.
libdvdnav: vm: failed to read VIDEO_TS.IFO
[09:33:10] dvd: not a dvd - trying as a stream/file instead
Input #0, mov,mp4,m4a,3gp,3g2,mj2, from 'D:\SQUAD Videos\Squad\Squad 03.19.2017 - 17.39.15.03.mp4':
  Metadata:
    major_brand     : mp42
    minor_version   : 0
    compatible_brands: mp41isom
    creation_time   : 2017-03-19 17:39:15
    date            : 2017
  Duration: 00:34:32.57, start: 0.000000, bitrate: 112946 kb/s
    Stream #0:0(und): Video: h264 (High) [avc1 / 0x31637661]
      yuv420p, tv, smpte170m/smpte170m/bt470m
      3440x1440 [PAR 1:1 DAR 43:18], 112739 kb/s
      59.92 fps, 60k tbn (default)
    Metadata:
      creation_time   : 2017-03-19 17:39:15
      handler_name    : VideoHandler
      encoder         : AVC Coding
    Stream #0:1(und): Audio: aac (LC) [mp4a / 0x6134706D]
      48000 Hz, stereo, fltp, 197 kb/s (default)
    Metadata:
      creation_time   : 2017-03-19 17:39:15
      handler_name    : SoundHandler
[09:33:10] scan: decoding previews for title 1
[09:33:11] scan: audio 0x1: aac, rate=48000Hz, bitrate=197155 Unknown (AAC) (2.0 ch)
[09:33:13] scan: 10 previews, 3440x1440, 59.827 fps, autocrop = 0/0/2/0, aspect 2.39:1, PAR 1:1
[09:33:13] scan: supported video decoders: avcodec qsv
[09:33:13] libhb: scan thread found 1 valid title(s)
[09:33:13] libhb: work result = 3

# Encode Completed ...

 

 

Edited by RipGroove

Share this post


Link to post
Share on other sites

Kind of sorted it, I downloaded one of they're 'Nightly' builds which I guess are the Beta versions, and the encoding started OK with the exact same settings.

 

Here's a link to the Nightly builds for reference: https://handbrake.fr/nightly.php

Share this post


Link to post
Share on other sites

Create an account or sign in to comment

You need to be a member in order to leave a comment

Create an account

Sign up for a new account in our community. It's easy!


Register a new account

Sign in

Already have an account? Sign in here.


Sign In Now